Jump to content

Dobrodošli na Balkandownload.org
Tražite domaće knjige, exyu magazine, sinhronizirane crtane filmove, PC i ostale igre, strane i domaće filmove, dokumentarce, stranu i domaću muziku, itd. ? Ne morate tražiti dalje jer sve ćete to naći kod nas, uredno postavljeno i spremno za download. Osim toga registracijom možete sudjelovati u raznim postojećim temama na forumu, otvarati nove teme, sudjelovati u chatu i još mnogo toga. Ako već imaš otvoren račun, logiraj se ovde ,a ako želiš saznati zašto smo najbolji otvori novi račun i uverite se sami :)
Photo

Igla ispod praga (2016)


6 replies to this topic

#1
ludimilojko88

ludimilojko88

    Advanced Member

  • Members
  • PipPipPip
  • 302 posts
  • 17732 thanks

Igla ispod praga (2016)

 

 

igla_film.jpg

 

 

 

 

Žena ga je ostavila. Đorđe, njegov sin, mu se suprotstavlja, majka ga tek ponekad prepozna. Sve što želi jeste samo trenutak mira. 

A šanse za to su nikakve jer će nesretni sveštenik postati nepremostiva prepreka za veliku prodaju zemlje. Petar odbija da postane deo njihove transakcije, te grupa šarmantnih, ali veoma osvetoljubivih seljana, odlučuje da popa iz sela otera.

 

Uloge: Nikola Ristanovski, Seka Sablić, Bogdan Diklić, Leon Lučev, Ljubomir Bandović...
Režija: Ivan Marinović
 
 
 
 
 
Igla_ispod_praga_2016.jpg

 

 

 

 

Hidden Content
You'll be able to see the hidden content once you thank this post.



Thanked by 543 Members:

#2
ludimilojko88

ludimilojko88

    Advanced Member

  • Members
  • PipPipPip
  • 302 posts
  • 17732 thanks

Igla ispod praga (2016)

Jedan link

 

 

 

Igla_ispod_praga_2016.jpg

 

 

 

 

Hidden Content
You'll be able to see the hidden content once you thank this post.


Edited by ludimilojko88, 15 October 2017 - 16:52.


Thanked by 469 Members:

#3
Guest_*offline*_*

Guest_*offline*_*
  • Guests
  • thanks

Igla ispod praga 2016 MP4

 

 SCREENSHOT :

 

63tUBcB.jpg

 

DOWNLOAD : 

 

LINKOVI SE MOGU KOMBINOVATI 

 

bjJCcDS.png
 
Hidden Content
You'll be able to see the hidden content once you thank this post.
 
vWNtf0E.png
 
Hidden Content
You'll be able to see the hidden content once you thank this post.
 
LLmYmY8.png
 
Hidden Content
You'll be able to see the hidden content once you thank this post.
 
Aon3ZXg.png
 
Hidden Content
You'll be able to see the hidden content once you thank this post.


Thanked by 219 Members:

#4
Guest_*offline*_*

Guest_*offline*_*
  • Guests
  • thanks
Igla.ispod.praga.2016.HDTV.720p.x264 MP4
 
40mvzGS.jpg
 
SCREENSHOT :
 
7Yuamor.jpg
 
DOWNLOAD 
 
LINKOVI SE MOGU KOMBINOVATI 
 
bjJCcDS.png
 
Hidden Content
You'll be able to see the hidden content once you thank this post.
 
vWNtf0E.png
 
Hidden Content
You'll be able to see the hidden content once you thank this post.
 
LLmYmY8.png
 
Hidden Content
You'll be able to see the hidden content once you thank this post.
 
Aon3ZXg.png
 
Hidden Content
You'll be able to see the hidden content once you thank this post.


Thanked by 148 Members:

#5
Guest_*offline*_*

Guest_*offline*_*
  • Guests
  • thanks
Igla.ispod.praga.2016.HDRip.DivX AVI
 
40mvzGS.jpg
 
SCREENSHOT :
 
y4VEkmL.jpg
 
DOWNLOAD 
 
Hidden Content
You'll be able to see the hidden content once you thank this post.
 
Aon3ZXg.png
 
Hidden Content
You'll be able to see the hidden content once you thank this post.


Thanked by 286 Members:

#6
nikolakralj100

nikolakralj100

    Advanced Member

  • Members
  • PipPipPip
  • 175 posts
  • 6826 thanks

Igla ispod praga (2016) 720p (blurovan TV logo)

 

eOAZ1LN.jpg

 

Žena ga je ostavila. Đorđe, njegov sin, mu se suprotstavlja, majka ga tek ponekad prepozna. Sve što želi jeste samo trenutak mira. 

A šanse za to su nikakve jer će nesretni sveštenik postati nepremostiva prepreka za veliku prodaju zemlje. Petar odbija da postane deo njihove transakcije, te grupa šarmantnih, ali veoma osvetoljubivih seljana, odlučuje da popa iz sela otera.

 
h0dmPn7.jpg

 

Hidden Content
You'll be able to see the hidden content once you thank this post.


Thanked by 263 Members:

#7
reckons

reckons

    Newbie

  • Members
  • Pip
  • 20 posts
  • 354 thanks

Igla ispod praga 2016 HDTV 720p x264

 

igla.jpg

 
Informacije:
Naslov: The Black Pin
Godina: 2016
Trajanje: 100 mins
Glasova: 0
Ocena: 7.4
Žanr: Comedy, Drama
Režiser: Ivan Marinovic
Scenario: Ivan Marinovic 
Producent: Mina Djukic Ivan Marinovic Marija Stojanovic Vladimir Vasiljevic 
Muzika: Toni Kitanovski 
 
 

Complete name                            : Igla.ispod.praga.2016.HDTV.720p.x264
Format                                   : MPEG-4
Format profile                           : Base Media
Codec ID                                 : isom (isom/iso2/mp41)
File size                                : 2.10 GiB
Duration                                 : 1 h 25 min
Overall bit rate mode                    : Variable
Overall bit rate                         : 3 534 kb/s
Encoded date                             : UTC 1970-01-01 00:00:00
Tagged date                              : UTC 1970-01-01 00:00:00
Writing application                      : Lavf52.64.2
 
Video
ID                                       : 1
Format                                   : MPEG-4 Visual
Format profile                           : Advanced [email protected]
Format settings, BVOP                    : No
Format settings, QPel                    : No
Format settings, GMC                     : No warppoints
Format settings, Matrix                  : Default (H.263)
Codec ID                                 : 20
Duration                                 : 1 h 25 min
Bit rate                                 : 3 454 kb/s
Width                                    : 1 280 pixels
Height                                   : 720 pixels
Display aspect ratio                     : 16:9
Frame rate mode                          : Constant
Frame rate                               : 25.000 FPS
Color space                              : YUV
Chroma subsampling                       : 4:2:0
Bit depth                                : 8 bits
Scan type                                : Progressive
Compression mode                         : Lossy
Bits/(Pixel*Frame)                       : 0.150
Stream size                              : 2.01 GiB (95%)
Encoded date                             : UTC 1970-01-01 00:00:00
Tagged date                              : UTC 1970-01-01 00:00:00
 
Audio
ID                                       : 2
Format                                   : AAC
Format/Info                              : Advanced Audio Codec
Format profile                           : LC
Codec ID                                 : 40
Duration                                 : 1 h 25 min
Duration_LastFrame                       : -21 ms
Bit rate mode                            : Variable
Bit rate                                 : 157 kb/s
Channel(s)                               : 2 channels
Channel positions                        : Front: L R
Sampling rate                            : 48.0 kHz
Frame rate                               : 46.875 FPS (1024 spf)
Compression mode                         : Lossy
Stream size                              : 95.9 MiB (4%)
Language                                 : English
Encoded date                             : UTC 1970-01-01 00:00:00
Tagged date                              : UTC 1970-01-01 00:00:00
 
gouATVo.jpg
 

Hidden Content
You'll be able to see the hidden content once you thank this post.

 



Thanked by 87 Members:



0 user(s) are reading this topic

0 members, 0 guests, 0 anonymous users