Jump to content

Dobrodošli na Balkandownload.org
Tražite domaće knjige, exyu magazine, sinhronizirane crtane filmove, PC i ostale igre, strane i domaće filmove, dokumentarce, stranu i domaću muziku, itd. ? Ne morate tražiti dalje jer sve ćete to naći kod nas, uredno postavljeno i spremno za download. Osim toga registracijom možete sudjelovati u raznim postojećim temama na forumu, otvarati nove teme, sudjelovati u chatu i još mnogo toga. Ako već imaš otvoren račun, logiraj se ovde ,a ako želiš saznati zašto smo najbolji otvori novi račun i uverite se sami :)
Photo

Sve najbolje (2016)


3 replies to this topic

#1
BD4YU

BD4YU

    Silver Member

  • Members
  • PipPipPipPipPip
  • 4,683 posts
  • 169713 thanks

Sve najbolje (2016) 720p . mp4

 

Izvor ripa: by stina

 

ix40BqH.jpg

Please Login or Register to see this Hidden Content

Sve najbolje (2016)
All the Best
 
Žanr: Komedija, Obiteljski
Godina: 2016
Redatelj: Snježana Tribuson
Glavne uloge: Ksenija Marinković, Bogdan Diklić, Goran Navojec, Goran Bogdan, Ksenija Marinković, Renata Pokupić, Ozren Grabarić
 
Opis filma: U božićno vrijeme, kad svatko svakome želi sve najbolje, isprepliću se sudbine usamljene slastičarke Verice (Ksenija Marinković) koja je davno odustala od traženja "onog pravog", Brankice (Renata Pokupić), svjetski uspješne operne pjevačice razočarane u ljubav i karizmatičnog baritona Martina (Ozren Grabarić) koji se oporavlja od bračnog brodoloma.
 
ZATVWh6.jpg
 
 
stisnite dugme "thanks" da otvorite linkove za download
Hidden Content
You'll be able to see the hidden content once you thank this post.

 



Thanked by 584 Members:

#2
joHaR122

joHaR122

    Newbie

  • Members
  • Pip
  • 30 posts
  • 554 thanks


Sve najbolje (2016)
 
 
stina_sve_najbolje_plakat.jpg
 

Please Login or Register to see this Hidden Content

 

General

Unique ID                                : 333206803887972421441835162924905581088 (0xFAAD4BCF0DC9974C9EB6730DB8F6CA20)
Complete name                            : Sve najbolje.mkv
Format                                   : Matroska
Format version                           : Version 4 / Version 2
File size                                : 1.81 GiB
Duration                                 : 1h 38mn
Overall bit rate mode                    : Variable
Overall bit rate                         : 2 631 Kbps
Encoded date                             : UTC 2017-11-11 10:04:26
Writing application                      : TMPGEnc Video Mastering Works 6 Version. 6.2.5.32
Writing library                          : TMPGEnc Video Mastering Works 6 Version. 6.2.5.32
COPYRIGHT                                : stina
COMMENT                                  : upload by stina
 
Video
ID                                       : 2
Format                                   : AVC
Format/Info                              : Advanced Video Codec
Format profile                           : [email protected]
Format settings, CABAC                   : Yes
Format settings, ReFrames                : 5 frames
Codec ID                                 : V_MPEG4/ISO/AVC
Duration                                 : 1h 38mn
Bit rate mode                            : Variable
Bit rate                                 : 2 500 Kbps
Maximum bit rate                         : 6 000 Kbps
Width                                    : 1 280 pixels
Height                                   : 720 pixels
Display aspect ratio                     : 16:9
Frame rate mode                          : Constant
Frame rate                               : 25.000 fps
Standard                                 : PAL
Color space                              : YUV
Chroma subsampling                       : 4:2:0
Bit depth                                : 8 bits
Scan type                                : Progressive
Bits/(Pixel*Frame)                       : 0.109
Stream size                              : 1.68 GiB (93%)
Writing library                          : x264 core 148
Encoding settings                        : cabac=1 / ref=5 / deblock=1:0:0 / analyse=0x3:0x113 / me=hex / subme=7 / psy=1 / psy_rd=1.00:0.00 / mixed_ref=1 / me_range=16 / chroma_me=1 / trellis=1 / 8x8dct=1 / cqm=1 / deadzone=21,11 / fast_pskip=1 / chroma_qp_offset=-2 / threads=12 / lookahead_threads=2 / sliced_threads=0 / slices=1 / nr=0 / decimate=1 / interlaced=0 / minigop=0 / stitchable=1 / constrained_intra=0 / bframes=3 / b_pyramid=0 / b_adapt=1 / b_bias=0 / direct=1 / weightb=1 / open_gop=1 / weightp=2 / keyint=300 / keyint_min=25 / scenecut=40 / intra_refresh=0 / rc_lookahead=40 / rc=2pass / mbtree=1 / bitrate=2500 / ratetol=1.0 / qcomp=0.60 / qpmin=3 / qpmax=69 / qpstep=4 / cplxblur=20.0 / qblur=0.5 / vbv_maxrate=6000 / vbv_bufsize=6000 / nal_hrd=vbr / filler=0 / ip_ratio=1.40 / aq=1:1.00
Default                                  : Yes
Forced                                   : No
Color primaries                          : BT.709
Transfer characteristics                 : BT.709
Matrix coefficients                      : BT.709
 
Audio
ID                                       : 1
Format                                   : MPEG Audio
Format version                           : Version 2
Format profile                           : Layer 2
Codec ID                                 : A_MPEG/L2
Codec ID/Hint                            : MP2
Duration                                 : 1h 38mn
Bit rate mode                            : Constant
Bit rate                                 : 128 Kbps
Channel(s)                               : 2 channels
Sampling rate                            : 24.0 KHz
Compression mode                         : Lossy
Stream size                              : 90.0 MiB (5%)
Default                                  : Yes
Forced                                   : No

 

 
suwfIC5.jpg
 
Hidden Content
You'll be able to see the hidden content once you thank this post.


Thanked by 103 Members:

#3
Zoran_

Zoran_

    Silver Member

  • VIP
  • PipPipPipPipPip
  • 4,130 posts
  • 60996 thanks

Sve najbolje (2016)


FelHL3v.png

Su6Ksi6.jpg
 

Please Login or Register to see this Hidden Content

U božićno vrijeme, kad svatko svakome želi sve najbolje, isprepliću se sudbine usamljene slastičarke Verice (Ksenija Marinković) koja je davno odustala od traženja "onog pravog", Brankice (Renata Pokupić), svjetski uspješne operne pjevačice razočarane u ljubav i karizmatičnog baritona Martina (Ozren Grabarić) koji se oporavlja od bračnog brodoloma.

l7epinsmcj.png

yitCT9r.gif

HRYI524.jpg

Oets6ur.gif

Sve najbolje (2016) 720p.x264.mkv

AXvxr9Y.jpg

Hidden Content
You'll be able to see the hidden content once you thank this post.

 


bMA09rm.gif

 

 

Molbe za moje linkove, šaljite na PP.


Zabranjeno je kopiranje mojih linkova,reupload i postavljanje na druge forume!


Thanked by 128 Members:

#4
mojaljubav63

mojaljubav63

    Advanced Member

  • Members
  • PipPipPip
  • 302 posts
  • 19555 thanks

Sve najbolje 2016 HDTV 720p

 

Sve.najbolje.2016.HDTV.720p.x264.mp4.jpg

 

General

Name..............: Sve.najbolje.2016.HDTV.720p.x264.mp4
Container.........: MPEG-4
Size..............: 1.98 GiB
Duration..........: 1 h 38 min

Video
Codec.............: x264
Aspect ratio......: 16:9
Resolution........: 1280x720 pixels
Bitrate...........: 2 800 kb
Frame rate........: 46.875 FPS (1024 SPF)

Audio
Audio # 1..........: AAC 2.0ch @ 96.0kb 

 

Hidden Content
You'll be able to see the hidden content once you thank this post.


Thanked by 43 Members:
sissa , SHONE176 , sea_st , kolle1970 , dsimek , zedhed , vertigoserbia , parigroz , belushi , dragica , bumbo0123 , offset , borisjer , gh7 , Tihomira , raNikola , ptar69 , ivorleon , hudson , dragans990 , juraj833 , Hogar55 , Pospanaa , peropero , danielb028 , ma02na , drago666 , srecnik , Alenbeg , beograd75 , Yuppicide , oljap , dankec , jumanjinz , zorar , goraneo , enak , sbojprim , tonitaxi , Tommy0412 , njofrat , direhard , xxx__



0 user(s) are reading this topic

0 members, 0 guests, 0 anonymous users