Jump to content

Dobrodošli na Balkandownload.org
Tražite domaće knjige, exyu magazine, sinhronizirane crtane filmove, PC i ostale igre, strane i domaće filmove, dokumentarce, stranu i domaću muziku, itd. ? Ne morate tražiti dalje jer sve ćete to naći kod nas, uredno postavljeno i spremno za download. Osim toga registracijom možete sudjelovati u raznim postojećim temama na forumu, otvarati nove teme, sudjelovati u chatu i još mnogo toga. Ako već imaš otvoren račun, logiraj se ovde ,a ako želiš saznati zašto smo najbolji otvori novi račun i uverite se sami :)
Photo

Uzbuna na Zelenom Vrhu (2017)


1 reply to this topic

#1
djukahr

djukahr

    Newbie

  • Members
  • Pip
  • 6 posts
  • 678 thanks

UZBUNA NA ZELENOM VRHU (2017)

38151.jpg

Please Login or Register to see this Hidden Content



Koko i njegovi prijatelji provode ljetne praznike na obalama jezera uz idilični Zeleni Vrh, družeći se i igrajući. Bajkovitu seosku idilu naruše neobični događaji koji uznemire i djecu i odrasle: kradljivci pod okriljem noći pljačkaju kuću za kućom, odnoseći sve vrijedno što im dođe pod ruke.  Kada se policija ogluši na prijave odraslih, djeca odluče uzeti stvar u svoje ruke i razotkriti lopove...

Glumci: Marko Tocilj, Alex Rakoš, Jan Pentek, Tin Gregorić, Jakov Piljek

Uzbuna_na_Zelenom_Vrhu.mkv_thumbs.jpg

General
Complete name               : Uzbuna na Zelenom Vrhu.mkv
Format                      : Matroska
Format version              : Version 4 / Version 2
File size                   : 1.42 GiB
Duration                    : 1 h 17 min
Overall bit rate mode       : Variable
Overall bit rate            : 2 629 kb/s
Encoded date                : UTC 2017-11-10 21:31:56
Writing application         : TMPGEnc Video Mastering Works 6 Version. 6.2.5.32
Writing library             : TMPGEnc Video Mastering Works 6 Version. 6.2.5.32
Copyright                   : stina
Comment                     : upload by stina

Video
ID                          : 2
Format                      : AVC
Format/Info                 : Advanced Video Codec
Format profile              : [email protected]
Format settings             : CABAC / 5 Ref Frames
Format settings, CABAC      : Yes
Format settings, RefFrames  : 5 frames
Codec ID                    : V_MPEG4/ISO/AVC
Duration                    : 1 h 17 min
Bit rate mode               : Variable
Bit rate                    : 2 500 kb/s
Maximum bit rate            : 6 000 kb/s
Width                       : 1 280 pixels
Height                      : 720 pixels
Display aspect ratio        : 16:9
Frame rate mode             : Constant
Frame rate                  : 25.000 FPS
Standard                    : PAL
Color space                 : YUV
Chroma subsampling          : 4:2:0
Bit depth                   : 8 bits
Scan type                   : Progressive
Bits/(Pixel*Frame)          : 0.109
Stream size                 : 1.33 GiB (93%)
Writing library             : x264 core 148
Default                     : Yes
Forced                      : No
Color range                 : Limited
Color primaries             : BT.709
Transfer characteristics    : BT.709
Matrix coefficients         : BT.709

Audio
ID                          : 1
Format                      : MPEG Audio
Format version              : Version 2
Format profile              : Layer 2
Codec ID                    : A_MPEG/L2
Codec ID/Hint               : MP2
Duration                    : 1 h 17 min
Bit rate mode               : Constant
Bit rate                    : 128 kb/s
Channel(s)                  : 2 channels
Sampling rate               : 24.0 kHz
Compression mode            : Lossy
Stream size                 : 71.0 MiB (5%)
Default                     : Yes
Forced                      : No

Hidden Content
You'll be able to see the hidden content once you thank this post.



Thanked by 605 Members:

#2
dakle

dakle

    Advanced Member

  • Uploader
  • PipPipPip
  • 314 posts
  • 27807 thanks
  • LocationBALKAN

Uzbuna na Zelenom Vrhu (2017) .MKV

 

XO81C01.jpg

 

Koko i njegovi prijatelji provode ljetne praznike na obalama jezera uz idilični Zeleni Vrh, družeći se i igrajući. Bajkovitu seosku idilu naruše neobični događaji koji uznemire i djecu i odrasle: kradljivci pod okriljem noći pljačkaju kuću za kućom, odnoseći sve vrijedno što im dođe pod ruke.  Kada se policija ogluši na prijave odraslih, djeca odluče uzeti stvar u svoje ruke i razotkriti lopove...

Glumci: Marko Tocilj, Alex Rakoš, Jan Pentek, Tin Gregorić, Jakov Piljek

Please Login or Register to see this Hidden Content

dLw9LDQ.jpg

 

DOWNLOAD:

Hidden Content
You'll be able to see the hidden content once you thank this post.


Edited by dakle, 24 November 2017 - 21:03.

Kako skinuti nesto sa Balkandownload-a?

www.slideshare.net/bd4yu/kako-skidati-fajlove-sa-balkan-download-a

Kako da pronadjete zeljeni sadrzaj na forumu? 

blackboxchallenge.com/topic/40428-kako-pronaci-zeljeni-sadrzaj-na-forumu/

:excl: Za obnovu isteklih/mrtvih linkova, pišite mi u PM. :excl: 

:yes:- BALKANDOWNLOAD -Balkan no.1 Forum - :yes:


Thanked by 219 Members:



0 user(s) are reading this topic

0 members, 0 guests, 0 anonymous users